[CD自购][WAV]『中国管弦乐作品集』

DG大黄标,中国爱乐乐团演奏,余隆指挥,民族经典乐曲的交响演绎,动人心扉!

[CD自购][WAV]『中国管弦乐作品集』

[CD自购][WAV]『中国管弦乐作品集』

[CD自购][WAV]『中国管弦乐作品集』

Exact Audio Copy V1.6 from 23. October 2020

EAC 抓取日志文件从7. 二月 2022, 16:53

未知艺术家 / 未知标题

使用驱动器 :hp DVDWBD TS-TB23L Adapter: 1 ID: 0

读取模式 : 可靠Secure
使用精确流 : 是
清空音频缓存 : 是
使用 C2 指示器 : 否

读取偏移校正: : 6
读取 Lead-In 和 Lead-Out : 否
用静音填充抓取中丢失偏移的采样 : 是
去除首尾静音块 : 否
在CRC 计算中使用了空样本 : 是
已用接口 : Win NT 及 2000 本地 Win32 接口
间隙处理 : 追加到上一曲目

所用输出模式: : 内部 WAV 函数
样本格式 : 44.100 Hz; 16 Bit; 立体声

已抓取 CD 的 TOC

音轨 | 起始 | 长度 | 起始扇区 | 结束扇区
——————————————–
1 | 0:00.00 | 2:53.50 | 0 | 13024
2 | 2:53.50 | 4:19.15 | 13025 | 32464
3 | 7:12.65 | 1:20.30 | 32465 | 38494
4 | 8:33.20 | 7:39.57 | 38495 | 72976
5 | 16:13.02 | 5:30.65 | 72977 | 97791
6 | 21:43.67 | 4:30.50 | 97792 | 118091
7 | 26:14.42 | 7:39.53 | 118092 | 152569
8 | 33:54.20 | 2:46.60 | 152570 | 165079
9 | 36:41.05 | 2:05.62 | 165080 | 174516
10 | 38:46.67 | 5:06.65 | 174517 | 197531
11 | 43:53.57 | 4:15.00 | 197532 | 216656
12 | 48:08.57 | 8:04.13 | 216657 | 252969
13 | 56:12.70 | 13:00.32 | 252970 | 311501
14 | 69:13.27 | 9:07.23 | 311502 | 352549

音轨 1

文件名 C:\Users\wyt20\Desktop\01 音轨01.wav

前间隙长度 0:00:02.00

峰值电平 50.7 %
抓取速度 2.2 X
音轨质量 100.0 %
复制 CRC 99B60613
精确校准地抓取 4) [DB0989F4] (AR v2)
复制成功

音轨 2

文件名 C:\Users\wyt20\Desktop\02 音轨02.wav

前间隙长度 0:00:03.58

峰值电平 50.6 %
抓取速度 1.4 X
音轨质量 100.0 %
复制 CRC 521E35F9
精确校准地抓取 4) [C242DEE1] (AR v2)
复制成功

音轨 3

文件名 C:\Users\wyt20\Desktop\03 音轨03.wav

前间隙长度 0:00:02.15

峰值电平 37.9 %
抓取速度 1.3 X
音轨质量 100.0 %
复制 CRC 84DCF91A
精确校准地抓取 4) [20F6A0D3] (AR v2)
复制成功

音轨 4

文件名 C:\Users\wyt20\Desktop\04 音轨04.wav

前间隙长度 0:00:01.50

峰值电平 100.0 %
抓取速度 1.9 X
音轨质量 100.0 %
复制 CRC 4DE8E255
精确校准地抓取 4) [DC8C3B2D] (AR v2)
复制成功

音轨 5

文件名 C:\Users\wyt20\Desktop\05 音轨05.wav

前间隙长度 0:00:02.37

峰值电平 43.8 %
抓取速度 2.0 X
音轨质量 100.0 %
复制 CRC D7B05FE4
精确校准地抓取 4) [AF2668D7] (AR v2)
复制成功

音轨 6

文件名 C:\Users\wyt20\Desktop\06 音轨06.wav

前间隙长度 0:00:01.27

峰值电平 100.0 %
抓取速度 2.3 X
音轨质量 100.0 %
复制 CRC AFD6A8AB
精确校准地抓取 4) [761C94DC] (AR v2)
复制成功

音轨 7

文件名 C:\Users\wyt20\Desktop\07 音轨07.wav

前间隙长度 0:00:05.22

峰值电平 100.0 %
抓取速度 2.8 X
音轨质量 100.0 %
复制 CRC 39D28799
精确校准地抓取 4) [AFD9F6AB] (AR v2)
复制成功

音轨 8

文件名 C:\Users\wyt20\Desktop\08 音轨08.wav

峰值电平 48.5 %
抓取速度 2.3 X
音轨质量 100.0 %
复制 CRC BC4C4302
精确校准地抓取 4) [FE60C038] (AR v2)
复制成功

音轨 9

文件名 C:\Users\wyt20\Desktop\09 音轨09.wav

前间隙长度 0:00:00.40

峰值电平 100.0 %
抓取速度 1.7 X
音轨质量 99.9 %
复制 CRC A05D557E
精确校准地抓取 4) [4F30E161] (AR v2)
复制成功

音轨 10

文件名 C:\Users\wyt20\Desktop\10 音轨10.wav

前间隙长度 0:00:03.27

峰值电平 100.0 %
抓取速度 2.6 X
音轨质量 100.0 %
复制 CRC 73689329
精确校准地抓取 4) [CAEB854B] (AR v2)
复制成功

音轨 11

文件名 C:\Users\wyt20\Desktop\11 音轨11.wav

前间隙长度 0:00:05.17

峰值电平 100.0 %
抓取速度 2.6 X
音轨质量 100.0 %
复制 CRC 1DB27EE6
精确校准地抓取 4) [060C28A4] (AR v2)
复制成功

音轨 12

文件名 C:\Users\wyt20\Desktop\12 音轨12.wav

前间隙长度 0:00:05.20

峰值电平 100.0 %
抓取速度 2.9 X
音轨质量 100.0 %
复制 CRC 616529B9
精确校准地抓取 4) [53B1B965] (AR v2)
复制成功

音轨 13

文件名 C:\Users\wyt20\Desktop\13 音轨13.wav

前间隙长度 0:00:05.13

峰值电平 100.0 %
抓取速度 4.9 X
音轨质量 100.0 %
复制 CRC 7853535F
精确校准地抓取 3) [7D9073B4] (AR v2)
复制成功

音轨 14

文件名 C:\Users\wyt20\Desktop\14 音轨14.wav

前间隙长度 0:00:04.52

峰值电平 100.0 %
抓取速度 3.3 X
音轨质量 100.0 %
复制 CRC B0A6975E
精确校准地抓取 2) [317A6416] (AR v2)
复制成功

所有音轨精确校准抓取

没有错误发生

状态报告结尾

—- CUETools DB Plugin V2.1.6

[CTDB TOCID: 4p1825R.M_tG6PJeTFTOozDj57c-] found
Submit result: 4p1825R.M_tG6PJeTFTOozDj57c- has been confirmed
Track | CTDB Status
1 | (196/247) Accurately ripped, or (4/247) differs in 1277 samples @02:00:07-02:00:11
2 | (201/247) Accurately ripped
3 | (201/247) Accurately ripped
4 | (200/247) Accurately ripped
5 | (201/247) Accurately ripped
6 | (201/247) Accurately ripped
7 | (200/247) Accurately ripped
8 | (200/247) Accurately ripped
9 | (201/247) Accurately ripped
10 | (201/247) Accurately ripped
11 | (200/247) Accurately ripped
12 | (200/247) Accurately ripped
13 | (200/247) Accurately ripped
14 | (200/247) Accurately ripped

28
打赏
590
下载
5
吐槽

- 评论

  • 加载中,请稍候…
我要吐槽