(转载)[百度][EAC]【女神异闻录5】PERSONA5:SOUNDS OF REBELLION【美版限定】[WAV+LOG]

(转载)[百度][EAC]【女神异闻录5】PERSONA5:SOUNDS OF REBELLION【美版限定】[WAV+LOG]

女神异闻录5】PERSONA5:SOUNDS OF REBELLION

Exact Audio Copy V1.3 from 2. September 2016

EAC 抓取日志文件从28. 四月 2017, 20:40

未知艺术家 / 未知标题

使用驱动器 :ATAPI DVD D DH16D3P Adapter: 1 ID: 0

读取模式 : 暴发

读取偏移校正: : 0
读取 Lead-In 和 Lead-Out : 否
用静音填充抓取中丢失偏移的采样 : 是
去除首尾静音块 : 否
在CRC 计算中使用了空样本 : 是
已用接口 : Win NT 及 2000 本地 Win32 接口
间隙处理 : 没检测到,因此追加到上一曲目

所用输出模式: : 内部 WAV 函数
样本格式 : 44.100 Hz; 16 Bit; 立体声

已抓取 CD 的 TOC

音轨 | 起始 | 长度 | 起始扇区 | 结束扇区
——————————————–
1 | 0:00.00 | 1:36.37 | 0 | 7236
2 | 1:36.37 | 2:18.08 | 7237 | 17594
3 | 3:54.45 | 0:53.09 | 17595 | 21578
4 | 4:47.54 | 4:21.70 | 21579 | 41223
5 | 9:09.49 | 1:38.26 | 41224 | 48599
6 | 10:48.00 | 1:38.13 | 48600 | 55962
7 | 12:26.13 | 1:01.62 | 55963 | 60599
8 | 13:28.00 | 4:42.26 | 60600 | 81775
9 | 18:10.26 | 0:45.54 | 81776 | 85204
10 | 18:56.05 | 1:15.23 | 85205 | 90852
11 | 20:11.28 | 2:28.38 | 90853 | 101990
12 | 22:39.66 | 2:04.48 | 101991 | 111338
13 | 24:44.39 | 2:49.04 | 111339 | 124017
14 | 27:33.43 | 2:43.43 | 124018 | 136285
15 | 30:17.11 | 1:30.34 | 136286 | 143069
16 | 31:47.45 | 2:45.14 | 143070 | 155458
17 | 34:32.59 | 1:43.26 | 155459 | 163209
18 | 36:16.10 | 3:57.20 | 163210 | 181004
19 | 40:13.30 | 5:36.60 | 181005 | 206264
没有错误发生

状态报告结尾

—- CUETools DB Plugin V2.1.6

[CTDB TOCID: 0X1AZVCnGL_Cpfc7WaP57DyEO0s-] found
Submit result: 0X1AZVCnGL_Cpfc7WaP57DyEO0s- has been confirmed
Track | CTDB Status
1 | (245/245) Accurately ripped
2 | (245/245) Accurately ripped
3 | (245/245) Accurately ripped
4 | (245/245) Accurately ripped
5 | (245/245) Accurately ripped
6 | (245/245) Accurately ripped
7 | (245/245) Accurately ripped
8 | (245/245) Accurately ripped
9 | (245/245) Accurately ripped
10 | (245/245) Accurately ripped
11 | (245/245) Accurately ripped
12 | (245/245) Accurately ripped
13 | (245/245) Accurately ripped
14 | (244/245) Accurately ripped
15 | (245/245) Accurately ripped
16 | (245/245) Accurately ripped
17 | (245/245) Accurately ripped
18 | (244/245) Accurately ripped
19 | (244/245) Accurately ripped

链接: https://pan.baidu.com/s/1JpO2mRGQBHrYwSS0bjCXeg 密码: u34v

0
打赏
1,438
下载
0
吐槽

- 评论

  • 加载中,请稍候…
我要吐槽