「Utopia」 Sou 44.1kHz WAV

链接: https://pan.baidu.com/s/1GqApYz_C_wg07YG3B729TA 提取码: tu1x 复制这段内容后打开百度网盘手机App,操作更方便哦

「Utopia」 Sou 44.1kHz WAV

「Utopia」 Sou 44.1kHz WAV

REM GENRE J-pop
REM DATE 2020
REM DISCID 3D06CD07
REM COMMENT “ExactAudioCopy v1.3”
CATALOG 0602508845390
PERFORMER “Sou”
TITLE “Utopia”
FILE “Sou – Utopia.wav” WAVE
TRACK 01 AUDIO
TITLE “ミスターフィクサー”
PERFORMER “Sou”
REM COMPOSER “Sou・神谷志龍”
ISRC JPPO01905019
INDEX 01 00:00:00
TRACK 02 AUDIO
TITLE “悪者”
PERFORMER “Sou”
REM COMPOSER “A_II”
ISRC JPPO02002053
INDEX 01 03:40:58
TRACK 03 AUDIO
TITLE “クイニーアマンダ”
PERFORMER “Sou”
REM COMPOSER “煮ル果実”
ISRC JPPO02002054
INDEX 00 07:24:32
INDEX 01 07:25:69
TRACK 04 AUDIO
TITLE “インペリアルボーイ”
PERFORMER “Sou”
REM COMPOSER “R Sound Design”
ISRC JPPO02002055
INDEX 00 12:32:67
INDEX 01 12:33:28
TRACK 05 AUDIO
TITLE “善人じゃない”
PERFORMER “Sou”
REM COMPOSER “あめのむらくもP”
ISRC JPPO02002056
INDEX 00 16:57:31
INDEX 01 16:58:68
TRACK 06 AUDIO
TITLE “もう会えないと思う”
PERFORMER “Sou”
REM COMPOSER “ピコン”
ISRC JPPO02002057
INDEX 00 21:06:43
INDEX 01 21:09:05
TRACK 07 AUDIO
TITLE “ユートピア”
PERFORMER “Sou”
REM COMPOSER “Sou”
ISRC JPPO02002058
INDEX 00 25:08:21
INDEX 01 25:08:57

链接: https://pan.baidu.com/s/1GqApYz_C_wg07YG3B729TA 提取码: tu1x 复制这段内容后打开百度网盘手机App,操作更方便哦

0
打赏
800
下载
2
吐槽
转贴到:

- 评论

  • 加载中,请稍候…
我要吐槽