【自购】宇多田ヒカル One Last Kiss mora

自己抓轨,wav格式

Exact Audio Copy V1.6 from 23. October 2020

EAC 抓取日志文件从2. 五月 2021, 8:50

宇多田ヒカル / One Last Kiss

使用驱动器 :TSSTcorpCDDVDW TS-L632H Adapter: 1 ID: 0

读取模式 : 可靠Secure
使用精确流 : 是
清空音频缓存 : 是
使用 C2 指示器 : 是

读取偏移校正: : 6
读取 Lead-In 和 Lead-Out : 否
用静音填充抓取中丢失偏移的采样 : 是
去除首尾静音块 : 否
在CRC 计算中使用了空样本 : 是
已用接口 : Win NT 及 2000 本地 Win32 接口
间隙处理 : 没检测到,因此追加到上一曲目

所用输出模式: : 内部 WAV 函数
样本格式 : 44.100 Hz; 16 Bit; 立体声

已抓取 CD 的 TOC

音轨 | 起始 | 长度 | 起始扇区 | 结束扇区
——————————————–
1 | 0:00.00 | 4:12.02 | 0 | 18901
2 | 4:12.02 | 5:58.69 | 18902 | 45820
3 | 10:10.71 | 5:17.30 | 45821 | 69625
4 | 15:28.26 | 5:12.63 | 69626 | 93088
5 | 20:41.14 | 4:42.66 | 93089 | 114304
6 | 25:24.05 | 3:26.57 | 114305 | 129811
7 | 28:50.62 | 4:12.02 | 129812 | 148713
8 | 33:02.64 | 5:57.42 | 148714 | 175530

音轨 1

文件名 C:\Users\sdfsd\Desktop\one last kiss\01 One Last Kiss.wav

峰值电平 99.8 %
抓取速度 3.5 X
音轨质量 100.0 %
复制 CRC FA170C69
精确校准地抓取 11) [E6F15A2A] (AR v2)
复制成功

音轨 2

文件名 C:\Users\sdfsd\Desktop\one last kiss\02 Beautiful World (Da Capo Version).wav

峰值电平 99.8 %
抓取速度 4.2 X
音轨质量 100.0 %
复制 CRC 718A754E
精确校准地抓取 11) [4CB42E02] (AR v2)
复制成功

音轨 3

文件名 C:\Users\sdfsd\Desktop\one last kiss\03 Beautiful World.wav

峰值电平 99.8 %
抓取速度 4.0 X
音轨质量 99.9 %
复制 CRC AB2B6BD1
精确校准地抓取 11) [2A1E0812] (AR v2)
复制成功

音轨 4

文件名 C:\Users\sdfsd\Desktop\one last kiss\04 Beautiful World -PLANiTb Acoustica Mix-.wav

峰值电平 99.8 %
抓取速度 4.9 X
音轨质量 100.0 %
复制 CRC 7D132DFB
精确校准地抓取 11) [E40BE82F] (AR v2)
复制成功

音轨 5

文件名 C:\Users\sdfsd\Desktop\one last kiss\05 桜流し.wav

峰值电平 99.7 %
抓取速度 5.2 X
音轨质量 100.0 %
复制 CRC 53922317
精确校准地抓取 11) [C1B52C41] (AR v2)
复制成功

音轨 6

文件名 C:\Users\sdfsd\Desktop\one last kiss\06 Fly Me to the Moon (In Other Words) -2007 MIX-.wav

峰值电平 99.5 %
抓取速度 5.1 X
音轨质量 100.0 %
复制 CRC E27C9238
精确校准地抓取 11) [D1AF8211] (AR v2)
复制成功

音轨 7

文件名 C:\Users\sdfsd\Desktop\one last kiss\07 One Last Kiss (Instrumental).wav

峰值电平 99.8 %
抓取速度 5.5 X
音轨质量 100.0 %
复制 CRC B9EDC961
精确校准地抓取 11) [76457678] (AR v2)
复制成功

音轨 8

文件名 C:\Users\sdfsd\Desktop\one last kiss\08 Beautiful World (Da Capo Version) (Instrumental).wav

峰值电平 99.8 %
抓取速度 5.3 X
音轨质量 99.9 %
复制 CRC CB4BE710
精确校准地抓取 11) [BC894278] (AR v2)
复制成功

所有音轨精确校准抓取

没有错误发生

状态报告结尾

—- CUETools DB Plugin V2.1.6

[CTDB TOCID: lJ3f9c62ec44wBL2VsCrF3XTjug-] found
Submit result: lJ3f9c62ec44wBL2VsCrF3XTjug- has been confirmed
Track | CTDB Status
1 | (294/297) Accurately ripped
2 | (295/297) Accurately ripped
3 | (294/297) Accurately ripped
4 | (294/297) Accurately ripped
5 | (295/297) Accurately ripped
6 | (295/297) Accurately ripped
7 | (295/297) Accurately ripped
8 | (295/297) Accurately ripped

12
打赏
1,952
下载
0
吐槽